Descargar e Instalar AVS para ver los videos en HD.

Dime con Cuantos [DVDScreener] [Castellano ] [2011]


dime con cuantos 10896 Dime con Cuantos [DVDScreener] [Castellano ] [2011]

Informacion Dime con Cuantos [DVDScreener] [Castellano ] [2011]

General

Complete name : /Dime.con.Cuantos.DVDSCreener.Castellano.by.MagicBibi.avi

Format : AVI

Format/Info : Audio Video Interleave

File size : 1.37 GiB

Duration : 1h 41mn

Overall bit rate : 1 930 Kbps

Writing application : VirtualDubMod 1.5.10.3 | www.virtualdub-fr.org || (build 2550/release)

Writing library : VirtualDubMod build 2550/release

Video

ID : 0

Format : MPEG-4 Visual

Format profile : Simple@L5

Format settings, BVOP : No

Format settings, QPel : No

Format settings, GMC : No warppoints

Format settings, Matrix : Default (H.263)

Codec ID : XVID

Codec ID/Hint : XviD

Duration : 1h 41mn

Bit rate : 1 792 Kbps

Width : 720 pixels

Height : 400 pixels

Display aspect ratio : 16:9

Frame rate : 25.000 fps

Color space : YUV

Chroma subsampling : 4:2:0

Bit depth : 8 bits

Scan type : Progressive

Compression mode : Lossy

Bits/(Pixel*Frame) : 0.249

Stream size : 1.28 GiB (93%)

Writing library : XviD 64

Audio

ID : 1

Format : MPEG Audio

Format version : Version 1

Format profile : Layer 3

Mode : Joint stereo

Mode extension : MS Stereo

Codec ID : 55

Codec ID/Hint : MP3

Duration : 1h 41mn

Bit rate mode : Constant

Bit rate : 128 Kbps

Channel(s) : 2 channels

Sampling rate : 44.1 KHz

Compression mode : Lossy

Stream size : 93.3 MiB (7%)

Alignment : Split accross interleaves

Interleave, duration : 40 ms (1.00 video frame)

Interleave, preload duration : 500 ms

Writing library : LAME3.98r

Encoding settings : -m j -V 4 -q 3 -lowpass 17 -b 128

Capturas Dime con Cuantos [DVDScreener] [Castellano ] [2011]

Dime con Cuantos DVDSCreener Castellano by Magic Dime con Cuantos [DVDScreener] [Castellano ] [2011]

Deescargar Dime con Cuantos [DVDScreener] [Castellano ] [2011]

fileservemagicbibi Dime con Cuantos [DVDScreener] [Castellano ] [2011]

http://www.fileserve.com/file/WeUCEa5

http://www.fileserve.com/file/S5AQXXr

wuploadmagicbibi Dime con Cuantos [DVDScreener] [Castellano ] [2011]

http://www.wupload.com/file/1752259121

http://www.wupload.com/file/1752259106

Filejunglemagicbibi Dime con Cuantos [DVDScreener] [Castellano ] [2011]

http://www.filejungle.com/f/rnyJRr

http://www.filejungle.com/f/J4k4HM

Videobb:

VideoZer:

Putlocker:

fianl11 Dime con Cuantos [DVDScreener] [Castellano ] [2011]

Descarga Directa:
Dime con Cuantos [DVDScreener] [Castellano ] [2011].avi

Ver Online Sin Cortes:

  • Pedro

    Todos los links caidos =/



Related Posts with Thumbnails