Descargar e Instalar AVS para ver los videos en HD.

El Gato Con Botas [2011] [TS-Screen-HQ] [Castellano]


8956 5 9511 El Gato Con Botas [2011] [TS Screen HQ] [Castellano]

Informacion El Gato Con Botas [2011] [TS Screen HQ] [Castellano]

TÍTULO ORIGINAL Puss in Boots

AÑO 2011

DURACIÓN 90 min.

DIRECTOR Chris Miller

GUIÓN Brian Lynch, David H. Steinberg, Tom Wheeler, Jon Zack

MÚSICA Henry Jackman

FOTOGRAFÍA Animation

REPARTO Animation

PRODUCTORA DreamWorks Animation

GÉNERO Animación | Spin-off. Gatos. 3-D

sinopsis El Gato Con Botas [2011] [TS Screen HQ] [Castellano]

Spin-off, de la saga Shrek, es la precuela de Shrek 2. Mucho tiempo antes de conocer a Shrek, el Gato con Botas emprendió un viaje aliándose con el ingenioso Humpty Dumpty y con la avispada Kitty Softpaws para robar el famoso ganso de los huevos de oro.

Ficha El Gato Con Botas [2011] [TS Screen HQ] [Castellano]

General

Complete name : /El.Gato.con.Botas.TSHQ.Castellano.By.MagicBibi.avi

Format : AVI

Format/Info : Audio Video Interleave

File size : 1.29 GiB

Duration : 1h 20mn

Overall bit rate : 2 289 Kbps

Writing application : VirtualDubMod 1.5.10.3 | www.virtualdub-fr.org || (build 2550/release)

Writing library : VirtualDubMod build 2550/release

Video

ID : 0

Format : MPEG-4 Visual

Format profile : Advanced Simple@L5

Format settings, BVOP : 2

Format settings, QPel : No

Format settings, GMC : No warppoints

Format settings, Matrix : Custom

Codec ID : XVID

Codec ID/Hint : XviD

Duration : 1h 20mn

Bit rate : 2 023 Kbps

Width : 720 pixels

Height : 304 pixels

Display aspect ratio : 2.35:1

Frame rate : 25.000 fps

Color space : YUV

Chroma subsampling : 4:2:0

Bit depth : 8 bits

Scan type : Progressive

Compression mode : Lossy

Bits/(Pixel*Frame) : 0.370

Stream size : 1.14 GiB (88%)

Writing library : XviD 1.2.1 (UTC 2008-12-04)

Audio

ID : 1

Format : MPEG Audio

Format version : Version 1

Format profile : Layer 3

Codec ID : 55

Codec ID/Hint : MP3

Duration : 1h 20mn

Bit rate mode : Constant

Bit rate : 256 Kbps

Channel(s) : 2 channels

Sampling rate : 44.1 KHz

Compression mode : Lossy

Stream size : 148 MiB (11%)

Alignment : Split accross interleaves

Interleave, duration : 40 ms (1.00 video frame)

Interleave, preload duration : 500 ms

Capturas El Gato Con Botas [2011] [TS Screen HQ] [Castellano]

El Gato con Botas TSHQ Castellano By Magic Bibi s El Gato Con Botas [2011] [TS Screen HQ] [Castellano]

Deescargar El Gato Con Botas [2011] [TS Screen HQ] [Castellano]

fileservemagicbibi El Gato Con Botas [2011] [TS Screen HQ] [Castellano]

http://www.fileserve.com/file/vzSSKHQ

http://www.fileserve.com/file/cvmyAQJ

Filejunglemagicbibi El Gato Con Botas [2011] [TS Screen HQ] [Castellano]

http://www.filejungle.com/f/EhGZ8D

http://www.filejungle.com/f/qTGSFn

filepostmagicbibi El Gato Con Botas [2011] [TS Screen HQ] [Castellano]

http://filepost.com/files/9a51m9b2/El.Ga...icBibi.avi.part1.rar

http://filepost.com/files/8ef855d3/El.Ga...icBibi.avi.part2.rar

fianl11 El Gato Con Botas [2011] [TS Screen HQ] [Castellano]

Post Creado con Magic Post Creator

Descarga Directa:
El Gato Con Botas [2011] [TS-Screen-HQ] [Castellano].avi

Ver Online Sin Cortes:

  • Rodri Curbelo

    estan rotos los links



Related Posts with Thumbnails