Sin salida (Abduction) [2011] [HD-Screener] [Castellano]


cartel sin salida 2011 515 Sin salida (Abduction) [2011] [HD Screener] [Castellano]

Informacion Sin salida (Abduction) [2011] [HD Screener] [Castellano]

General

Complete name : /Sin.Salida.HDScreener.Castellano.by.MagicBibi.avi

Format : AVI

Format/Info : Audio Video Interleave

File size : 1.36 GiB

Duration : 1h 46mn

Overall bit rate : 1 821 Kbps

Writing application : VirtualDubMod 1.5.10.2 (build 2540/release)

Writing library : VirtualDubMod build 2540/release

Video

ID : 0

Format : MPEG-4 Visual

Format profile : Advanced Simple@L5

Format settings, BVOP : 2

Format settings, QPel : No

Format settings, GMC : No warppoints

Format settings, Matrix : Custom

Codec ID : XVID

Codec ID/Hint : XviD

Duration : 1h 46mn

Bit rate : 1 697 Kbps

Width : 720 pixels

Height : 304 pixels

Display aspect ratio : 2.35:1

Frame rate : 29.970 fps

Color space : YUV

Chroma subsampling : 4:2:0

Bit depth : 8 bits

Scan type : Progressive

Compression mode : Lossy

Bits/(Pixel*Frame) : 0.259

Stream size : 1.27 GiB (93%)

Writing library : XviD 58

Audio

ID : 1

Format : MPEG Audio

Format version : Version 1

Format profile : Layer 3

Mode : Joint stereo

Mode extension : MS Stereo

Codec ID : 55

Codec ID/Hint : MP3

Duration : 1h 46mn

Bit rate mode : Constant

Bit rate : 112 Kbps

Channel(s) : 2 channels

Sampling rate : 44.1 KHz

Compression mode : Lossy

Delay relative to video : 4ms

Stream size : 85.6 MiB (6%)

Alignment : Split accross interleaves

Interleave, duration : 33 ms (1.00 video frame)

Interleave, preload duration : 500 ms

Capturas Sin salida (Abduction) [2011] [HD Screener] [Castellano]

Sin Salida HDScreener Castellano by Magic Bibi s Sin salida (Abduction) [2011] [HD Screener] [Castellano]

Deescargar Sin salida (Abduction) [2011] [HD Screener] [Castellano]

fileservemagicbibi Sin salida (Abduction) [2011] [HD Screener] [Castellano]

http://www.fileserve.com/file/UXkpMfw

http://www.fileserve.com/file/FPjMVEF

wuploadmagicbibi Sin salida (Abduction) [2011] [HD Screener] [Castellano]

http://www.wupload.com/file/1910166242

http://www.wupload.com/file/1910166207

Filejunglemagicbibi Sin salida (Abduction) [2011] [HD Screener] [Castellano]

http://www.filejungle.com/f/hNtKPr

http://www.filejungle.com/f/QFAzAb

fianl11 Sin salida (Abduction) [2011] [HD Screener] [Castellano]

Descarga Directa:
Sin salida (Abduction) [2011] [HD-Screener] [Castellano].avi

Ver Online Sin Cortes:



Related Posts with Thumbnails