Descargar e Instalar AVS para ver los videos en HD.

3 Metros Sobre El Cielo (2010) [HD 720p] [Español AC3 5.1]


wvgxll8rp5du64upfpr 3 Metros Sobre El Cielo (2010) [HD 720p] [Español AC3 5.1]

PELICULA: 3 Metros Sobre El Cielo
AÑO: 2010
GÉNERO: Drama, Romance
PAÍS: España
DIRECTOR: Fernando González Molina
GUIÓN: Ramón Salazar (Novela: Federico Moccia)
REPARTO: Mario Casas, María Valverde, Álvaro Cervantes, Marina Salas, Nerea Camacho, Cristina Plazas, Jordi Bosch, Diego Martín, Clara Segura, Luis Fernández, Andrea Duro, Pablo Rivero, Marcel Borrás, Joan Crosas
PRODUCTORA: Antena 3 Films

SINOPSIS:
En Barcelona, dos jóvenes que pertenecen a mundos opuestos se conocen. Ella, la dulce Babi (María Valverde), es una chica de clase alta que vive en un entorno tan protegido como poco excitante. Él, Hugo (Mario Casas), conocido como el duro “H”, es un chico impulsivo e irresponsable, aficionado a las peleas y a las carreras ilegales de motos. Esta es la crónica de un amor inicialmente imposible que arrastrará a ambos a un frenético viaje iniciático a través del cual descubrirán el amor.

Media Info
Complete name :files/3.Metros.Sobre.El.Cielo.HD-720p.Spanish-Ac3.mkv
Format :Matroska
File size :3.09 GiB
Duration :2h 3mn
Overall bit rate :3 593 Kbps
Encoded date :UTC 2011-04-21 23:13:40
Writing library :libebml v0.7.7 + libmatroska v0.8.1

Video

ID :1
Format :AVC
Format/Info :Advanced Video Codec
Format profile :Main@L4.0
Format settings, CABAC :Yes
Format settings, ReFrames :2 frames
Muxing mode :Container profile=Unknown@4.0
Codec ID :V_MPEG4/ISO/AVC
Duration :2h 3mn
Bit rate :3 000 Kbps
Width :1 920 pixels
Height :820 pixels
Display aspect ratio :2.35:1
Frame rate mode :Variable
Frame rate :24.000 fps
Color space :YUV
Chroma subsampling :4:2:0
Bit depth :8 bits
Scan type icon razz 3 Metros Sobre El Cielo (2010) [HD 720p] [Español AC3 5.1] rogressive
Bits/(Pixel*Frame) :0.079
Stream size :2.48 GiB (80%)
Writing library icon mad 3 Metros Sobre El Cielo (2010) [HD 720p] [Español AC3 5.1] 264 core 112 r1834 a51816a
Encoding settings :cabac=1 / ref=1 / deblock=1:0:0 / analyse=0×1:0 / me=dia / subme=2 / psy=1 / psy_rd=0.00:0.00 / mixed_ref=0 / me_range=16 / chroma_me=1 / trellis=0 / 8x8dct=0 / cqm=0 / deadzone=21,11 / fast_pskip=1 / chroma_qp_offset=0 / threads=6 / sliced_threads=0 / nr=0 / decimate=1 / interlaced=0 / constrained_intra=0 / bframes=3 / b_pyramid=0 / b_adapt=1 / b_bias=0 / direct=3 / weightb=0 / open_gop=0 / weightp=2 / keyint=250 / keyint_min=25 / scenecut=40 / intra_refresh=0 / rc_lookahead=40 / rc=abr / mbtree=1 / bitrate=3000 / ratetol=1.0 / qcomp=0.60 / qpmin=10 / qpmax=51 / qpstep=4 / ip_ratio=1.41 / aq=1:1.00

Audio

ID :2
Format :AC-3
Format/Info :Audio Coding 3
Mode extension :CM (complete main)
Codec ID :A_AC3
Duration :2h 3mn
Bit rate mode :Constant
Bit rate :640 Kbps
Channel(s) :6 channels
Channel positions :Front: L C R, Side: L R, LFE
Sampling rate :48.0 KHz
Bit depth :16 bits
Stream size :564 MiB (18%)
Title :Audio AC3 Castellano
Language :Spanish

Captura:
ka6x7b7ar3le t 3 Metros Sobre El Cielo (2010) [HD 720p] [Español AC3 5.1]

AWMGUX416D6W&width=500&height=380&autoplay=no” frameborder=”0″ width=”500″ height=”380″>

Descargalo:
Bitshare | Uploaded | Letitbit | Shareflare | Depositfiles | Filefactory | Rapidgator | Turbobit | Asfile | Rapidshare | Uloz | Cloudnator | Extabit | Putlocker | Cramit | Bayfiles

Descarga Directa:
3 Metros Sobre El Cielo (2010) [HD 720p] [Español AC3 5.1].avi

Ver Online Sin Cortes:

  • Alexander Exa

    no que la peli estaba en MKV y pesaba 3G ? el link de descarga me envia a la verion en AVI y en 1.29 G… :/

  • juangarcia

    los archivos ya no estan disponiblesTT los puedes volver a colgar?



Related Posts with Thumbnails